Skip to content

AINTE!


Straight outta Ματσατσούτσετς οι τέως αστειάτορες και νυν μικροφωνικοί υποκριτές δημιουργούν ηχητικές καταστάσεις (mostly ’90s) και δημιουργούν μαζί πάντα με κέφι, ορεξη, καλή διάθεση, σαρκασμό και χωρίς να βγάζουν το σκασμό!

Το ΑΙΝΤΕ είναι μία έμπνευση του Φαρισαίου με εμφανείς επιρροές από το 90’s άσμα των O.P.A. “Άιντε”

Παρουσιάζουν: Γραμματέας & Φαρισαίος

 …shame! φτου! you Γραμματείς και Φαρισαίοι, you are hypocrites…

  • by Phariseos
    MixTape089 – USA Country 2024 TRACK 1 AUDIO TITLE "Rain In The Rearview" PERFORMER "Anne Wilson" INDEX 01 00:00:00 TRACK 2 AUDIO TITLE "I Will (When You Do)" PERFORMER "Avery Anna, Dylan Marlowe" INDEX 01 02:52:37 TRACK 3 AUDIO TITLE "Old Dirt Roads" PERFORMER "Owen Riegling" INDEX 01 06:07:56 TRACK 4 AUDIO TITLE "Creek Will Rise" PERFORMER "Conner Smith" INDEX 01 09:44:15 TRACK 5 AUDIO TITLE "Tennessee Don't Mind" PERFORMER "Kameron Marlowe" INDEX 01 12:23:10 TRACK 6 AUDIO TITLE "The Painter" PERFORMER "Cody Johnson" INDEX 01 15:59:47 TRACK 7 AUDIO TITLE "TEXAS HOLD 'EM" PERFORMER "Beyoncé" INDEX 01 19:08:63 TRACK […]
  • by Phariseos
    PERFORMER "" TITLE "POULOPOULOS Koumioti" FILE "POULOPOULOS Koumioti.wav" WAVE TRACK 1 AUDIO TITLE "Chymeronei Kyriaki" PERFORMER "Giannis Poulopoulos" INDEX 01 00:00:00 TRACK 2 AUDIO TITLE "I Myrsini Vazei T' Aspra" PERFORMER "Giannis Poulopoulos" INDEX 01 02:59:74 TRACK 3 AUDIO TITLE "Ola Dika Sou" PERFORMER "Giannis Poulopoulos" INDEX 01 05:18:46 TRACK 4 AUDIO TITLE "Eklapsa Hthes" PERFORMER "Giannis Poulopoulos" INDEX 01 08:01:55 TRACK 5 AUDIO TITLE "Tha Pio Apopse To Feggari – Original Version" PERFORMER "Giannis Poulopoulos" INDEX 01 10:29:09 TRACK 6 AUDIO TITLE "Na 'Ha Ti Dynami" PERFORMER "Giannis Poulopoulos" INDEX 01 13:42:26 TRACK 7 AUDIO TITLE "Dodeka Mantolina" PERFORMER […]
  • by Phariseos
    MixTape087 – Papakonstadinou POWER | Παπακωνσταντινου ΔΥΝΑΤΑ TRACK 1 AUDIO TITLE "Fovame" PERFORMER "Vasilis Papakonstadinou" INDEX 01 00:00:00 TRACK 2 AUDIO TITLE "Viktoria" PERFORMER "Vasilis Papakonstadinou" INDEX 01 06:39:58 TRACK 3 AUDIO TITLE "Ellas" PERFORMER "Vasilis Papakonstadinou" INDEX 01 10:39:15 TRACK 4 AUDIO TITLE "Heretismata" PERFORMER "Vasilis Papakonstadinou" INDEX 01 14:36:63 TRACK 5 AUDIO TITLE "Pragmatikotita" PERFORMER "Vasilis Papakonstadinou" INDEX 01 18:48:70 TRACK 6 AUDIO TITLE "Spane I Hordes Mou" PERFORMER "Vasilis Papakonstadinou" INDEX 01 22:27:23 TRACK 7 AUDIO TITLE "Den Se Goustaro" PERFORMER "Vasilis Papakonstadinou" INDEX 01 25:34:05 TRACK 8 AUDIO TITLE "O Saliagas Ki O Maliagas" PERFORMER "Vasilis […]
  • by Phariseos
    MixTape086 – Papakonstadinou Ballads | Οι Μπαλαντες του Παπακωνσταντινου TRACK 1 AUDIO TITLE "Hamenes Agapes" PERFORMER "Vasilis Papakonstadinou" INDEX 01 00:00:00 TRACK 2 AUDIO TITLE "Vradi Savvatou" PERFORMER "Vasilis Papakonstadinou" INDEX 01 05:11:37 TRACK 3 AUDIO TITLE "Fronima Koukla Mou" PERFORMER "Vasilis Papakonstadinou" INDEX 01 08:33:70 TRACK 4 AUDIO TITLE "Bagasas" PERFORMER "Vasilis Papakonstadinou" INDEX 01 11:07:50 TRACK 5 AUDIO TITLE "Tiflomiga" PERFORMER "Vasilis Papakonstadinou" INDEX 01 14:55:16 TRACK 6 AUDIO TITLE "God Bless America" PERFORMER "Vasilis Papakonstadinou" INDEX 01 18:16:03 TRACK 7 AUDIO TITLE "Prin To Telos" PERFORMER "Vasilis Papakonstadinou" INDEX 01 21:58:74 TRACK 8 AUDIO TITLE "Se Thelo" […]
  • by Phariseos
    TITLE "MixTape085 Daft Punk vs Giorgio Moroder" 1. "Main Title (From The Motion Picture "Scarface")" – "Giorgio Moroder" 2. "Giorgio by Moroder" – "Daft Punk" 3. "Da Funk" – "Daft Punk" 4. "Get Lucky (Radio Edit) [feat. Pharrell Williams and Nile Rodgers]" – "Daft Punk, Pharrell Williams, Nile Rodgers" 5. "Giorgio's Theme" – "Giorgio Moroder" 6. "74 Is the New 24" – "Giorgio Moroder" 7. "What a Feeling – Hackatone Remix" – "Giorgio Moroder, Hackatone" 8. "Chase" – "Giorgio Moroder" 9. "La Disco" – "Giorgio Moroder" 10. "Right Here, Right Now (feat. Kylie Minogue)" – "Giorgio Moroder, Kylie Minogue" 11. […]
  • by Phariseos
    MixTape084 – EPIC Concentrations
  • by Phariseos
    Mixtape083 – Feel Good Rock TRACK 1 AUDIO TITLE "Don't Stop Believin'" PERFORMER "Journey" TRACK 2 AUDIO TITLE "Thunderstruck" PERFORMER "AC_DC" TRACK 3 AUDIO TITLE "We're Not Gonna Take It" PERFORMER "Twisted Sister" TRACK 4 AUDIO TITLE "Dancing In the Dark" PERFORMER "Bruce Springsteen" TRACK 5 AUDIO TITLE "Dancing with Myself (2001 Remaster)" PERFORMER "Billy Idol" TRACK 6 AUDIO TITLE "I Love Rock 'N Roll" PERFORMER "Joan Jett and the Blackhearts" TRACK 7 AUDIO TITLE "(I Can't Get No) Satisfaction" PERFORMER "The Rolling Stones" TRACK 8 AUDIO TITLE "Crazy Train" PERFORMER "Ozzy Osbourne" TRACK 9 AUDIO TITLE "Summer Of '69" […]
  • by Phariseos
    MixTape082 – Reggaeton Anthems TRACK 1 AUDIO TITLE "Despacito (Remix)" PERFORMER "Luis Fonsi" TRACK 2 AUDIO TITLE "Mi Cama (Remix)" PERFORMER "Karol G" TRACK 3 AUDIO TITLE "Tranquila" PERFORMER "J Balvin" TRACK 4 AUDIO TITLE "Ella Y Yo – Featuring Don Omar" PERFORMER "Aventura, Don Omar" TRACK 5 AUDIO TITLE "Shaky Shaky (Remix)" PERFORMER "Daddy Yankee" TRACK 6 AUDIO TITLE "TQG" PERFORMER "Karol G" INDEX 01 12:56:68 TRACK 7 AUDIO TITLE "Tu Pun Pun" PERFORMER "El General" TRACK 8 AUDIO TITLE "El Telefono" PERFORMER "Héctor "El Father", Wisin & Yandel" TRACK 9 AUDIO TITLE "Nadie Como Tu" PERFORMER "Wisin & […]
  • by Phariseos
    TITLE "MixTape081 Chillax Beats 2 Enigma Toned" TRACK 1 AUDIO TITLE "Byzantine Meditation" PERFORMER "Antaeus" INDEX 01 00:00:00 TRACK 2 AUDIO TITLE "7 Seconds (feat. Neneh Cherry)" PERFORMER "Youssou N'Dour, Neneh Cherry" INDEX 01 04:43:31 TRACK 3 AUDIO TITLE "Blossoms from India" PERFORMER "Ginkgo Garden" INDEX 01 09:10:06 TRACK 4 AUDIO TITLE "Mama" PERFORMER "Antaeus" INDEX 01 12:32:66 TRACK 5 AUDIO TITLE "Sadeness – Pt. 1 / Radio Edit" PERFORMER "Enigma" INDEX 01 16:31:01 TRACK 6 AUDIO TITLE "Kyrie" PERFORMER "Antaeus" INDEX 01 20:15:26 TRACK 7 AUDIO TITLE "Mother – Remix" PERFORMER "ERA" INDEX 01 24:38:42 TRACK 8 AUDIO TITLE […]
  • by Phariseos
    MixTape080 – Chillax Beats 1 TRACK 1 TITLE "Baglamas" PERFORMER "MisterG" TRACK 2 TITLE "Asteri" PERFORMER "Kyriakos Papadopoulos, Antonis Gounaris" TRACK 3 TITLE "Gypsy Day" PERFORMER "Nikos Kaponis" TRACK 4 TITLE "Candelas – DJ Pantelis & Nick Saley Remix" PERFORMER "Cosmos Shape, Dj Pantelis, Nick Saley" TRACK 5 TITLE "Margarites – Radio Edit" PERFORMER "Jayworx, Consoul Trainin" TRACK 6 TITLE "Sala Sala – Dreamers Inc Extended Mix" PERFORMER "Thanassis Vassilopoulos" TRACK 7 TITLE "Rhodope" PERFORMER "Dj Pantelis" TRACK 8 AUDIO TITLE "Ola Se Thimizoun" PERFORMER "Dj Pantelis, Nick Saley" TRACK 9 TITLE "Poso mou lipi – Chill out version" PERFORMER […]